Gair (1999) 1080p WebHD AVC AAC ESub-DTOne







Format                      : Matroska
Format version              : Version 4 / Version 2
File size                  : 6.30 GiB
Duration                    : 2 h 29 min
Overall bit rate            : 6 046 kb/s
Encoded date                : UTC 2016-06-25 08:39:53
Writing application        : mkvmerge v9.1.0 ('Little Earthquakes') 64bit
Writing library            : libebml v1.3.3 + libmatroska v1.4.4

Video
ID                          : 1
Format                      : AVC
Format/Info                : Advanced Video Codec
Format profile              : High@L4
Format settings            : CABAC / 4 Ref Frames
Format settings, CABAC      : Yes
Format settings, ReFrames  : 4 frames
Codec ID                    : V_MPEG4/ISO/AVC
Duration                    : 2 h 29 min
Bit rate                    : 5 873 kb/s
Width                      : 1 920 pixels
Height                      : 1 080 pixels
Display aspect ratio        : 16:9
Frame rate mode            : Constant
Frame rate                  : 24.000 FPS
Color space                : YUV
Chroma subsampling          : 4:2:0
Bit depth                  : 8 bits
Scan type                  : Progressive
Bits/(Pixel*Frame)          : 0.118
Stream size                : 6.09 GiB (97%)
Writing library            : x264 core 133 r2 a3ac64b
Encoding settings          : cabac=1 / ref=3 / deblock=1:0:0 / analyse=0x3:0x113 / me=hex / subme=7 / psy=1 / psy_rd=1.00:0.00 / mixed_ref=1 / me_range=16 / chroma_me=1 / trellis=1 / 8x8dct=1 / cqm=0 / deadzone=21,11 / fast_pskip=1 / chroma_qp_offset=-2 / threads=12 / lookahead_threads=2 / sliced_threads=0 / nr=0 / decimate=1 / interlaced=0 / bluray_compat=0 / constrained_intra=0 / bframes=3 / b_pyramid=2 / b_adapt=1 / b_bias=0 / direct=1 / weightb=1 / open_gop=0 / weightp=2 / keyint=30 / keyint_min=3 / scenecut=40 / intra_refresh=0 / rc_lookahead=30 / rc=abr / mbtree=1 / bitrate=5873 / ratetol=1.0 / qcomp=0.60 / qpmin=0 / qpmax=69 / qpstep=4 / ip_ratio=1.40 / aq=1:1.00
Default                    : Yes
Forced                      : No

Audio
ID                          : 2
Format                      : AAC
Format/Info                : Advanced Audio Codec
Format profile              : LC
Codec ID                    : A_AAC-2
Duration                    : 2 h 29 min
Bit rate                    : 192 kb/s
Channel(s)                  : 6 channels
Channel positions          : Front: L C R, Side: L R, LFE
Sampling rate              : 48.0 kHz
Frame rate                  : 46.875 FPS (1024 SPF)
Compression mode            : Lossy
Delay relative to video    : -43 ms
Stream size                : 207 MiB (3%)
Default                    : Yes
Forced                      : No

Subtitle     : English




Gair (1999) 1080p WebHD AVC AAC ESub-DTOne Gair (1999) 1080p WebHD AVC AAC ESub-DTOne Gair (1999) 1080p WebHD AVC AAC ESub-DTOne Gair (1999) 1080p WebHD AVC AAC ESub-DTOne Gair (1999) 1080p WebHD AVC AAC ESub-DTOne


SINGLE DIRECT FAST LINKS

http://www.heroupload.us/040aeb616993fc4b/Gair.1999.1080p.WebHD.AVC.AAC.ESub-DTOne.mkv


1GB LINKS


http://www.heroupload.us/c1f73d140f0952a5/Gair.1999.1080p.WebHD.AVC.AAC.ESub-DTOne.part1.rar
http://www.heroupload.us/4b0aa3c8fd24ecdd/Gair.1999.1080p.WebHD.AVC.AAC.ESub-DTOne.part2.rar
http://www.heroupload.us/c449a237fdf57824/Gair.1999.1080p.WebHD.AVC.AAC.ESub-DTOne.part3.rar
http://www.heroupload.us/1de085af3b573e39/Gair.1999.1080p.WebHD.AVC.AAC.ESub-DTOne.part4.rar
http://www.heroupload.us/37e5e7abe0b1eb32/Gair.1999.1080p.WebHD.AVC.AAC.ESub-DTOne.part5.rar
http://www.heroupload.us/ecacffc160189065/Gair.1999.1080p.WebHD.AVC.AAC.ESub-DTOne.part6.rar
http://www.heroupload.us/6f499b6fc25ade2a/Gair.1999.1080p.WebHD.AVC.AAC.ESub-DTOne.part7.rar
http://www.heroupload.us/0302cdc65154663c/Gair.1999.1080p.WebHD.AVC.AAC.ESub-DTOne.srt



http://filefloater.com/SUe/Gair.1999.1080p.WebHD.AVC.AAC.ESub-DTOne.part1.rar
http://filefloater.com/SUh/Gair.1999.1080p.WebHD.AVC.AAC.ESub-DTOne.part2.rar
http://filefloater.com/SUj/Gair.1999.1080p.WebHD.AVC.AAC.ESub-DTOne.part3.rar
http://filefloater.com/SUk/Gair.1999.1080p.WebHD.AVC.AAC.ESub-DTOne.part4.rar
http://filefloater.com/SUl/Gair.1999.1080p.WebHD.AVC.AAC.ESub-DTOne.part5.rar
http://filefloater.com/SUm/Gair.1999.1080p.WebHD.AVC.AAC.ESub-DTOne.part6.rar
http://filefloater.com/SUn/Gair.1999.1080p.WebHD.AVC.AAC.ESub-DTOne.part7.rar
http://filefloater.com/SUo/Gair.1999.1080p.WebHD.AVC.AAC.ESub-DTOne.srt

Dear visitor, you went to the site as unregistered user.
We recommend that you create or enter the site your name.
+

Comments 1

Quote 6 May 2018 00:16 User offline
if i want to download this movie

i want to download this site but this is not available

Add a comment

Name:*
E-Mail:
Bold Italic Underline Strike | Align left Center Align right | Insert smilies Insert link URLInsert protected URL Select color | Add Hidden Text Insert Quote Convert selected text from selection to Cyrillic (Russian) alphabet Insert spoiler
Enter the code: *
Include security image CAPCHA.
Refresh Code
 

|||||||

«    May 2018    »
MonTueWedThuFriSatSun
 123456
78910111213
14151617181920
21222324252627
28293031