Insidious: The Last Key (2018) 720p BDRip x264 DD5.1 [Multi Audio][Hindi+Tam+Tel+Eng]






General
Format                      : Matroska
Format version              : Version 4 / Version 2
File size                   : 1.37 GiB
Duration                    : 1 h 43 min
Overall bit rate            : 1 894 kb/s
Encoded date                : UTC 2018-05-14 08:40:08
Writing application         : mkvmerge v20.0.0 ('I Am The Sun') 64-bit
Writing library             : libebml v1.3.5 + libmatroska v1.4.8

Video
ID                          : 1
Format                      : AVC
Format/Info                 : Advanced Video Codec
Format profile              : High@L4.1
Format settings, CABAC      : Yes
Format settings, RefFrames  : 9 frames
Codec ID                    : V_MPEG4/ISO/AVC
Duration                    : 1 h 43 min
Bit rate                    : 1 252 kb/s
Width                       : 1 280 pixels
Height                      : 538 pixels
Display aspect ratio        : 2.40:1
Frame rate mode             : Constant
Frame rate                  : 23.976 (24000/1001) FPS
Color space                 : YUV
Chroma subsampling          : 4:2:0
Bit depth                   : 8 bits
Scan type                   : Progressive
Bits/(Pixel*Frame)          : 0.076
Stream size                 : 926 MiB (66%)
Writing library             : x264 core 133 r2334 a3ac64b
Encoding settings           : cabac=1 / ref=9 / deblock=1:-1:-1 / analyse=0x3:0x133 / me=umh / subme=10 / psy=1 / psy_rd=1.00:0.00 / mixed_ref=1 / me_range=24 / chroma_me=1 / trellis=2 / 8x8dct=1 / cqm=0 / deadzone=21,11 / fast_pskip=1 / chroma_qp_offset=-2 / threads=48 / lookahead_threads=4 / sliced_threads=0 / nr=0 / decimate=1 / interlaced=0 / bluray_compat=0 / constrained_intra=0 / bframes=6 / b_pyramid=2 / b_adapt=2 / b_bias=0 / direct=3 / weightb=1 / open_gop=0 / weightp=2 / keyint=240 / keyint_min=23 / scenecut=40 / intra_refresh=0 / rc_lookahead=60 / rc=2pass / mbtree=1 / bitrate=1252 / ratetol=1.0 / qcomp=0.60 / qpmin=0 / qpmax=69 / qpstep=4 / cplxblur=20.0 / qblur=0.5 / vbv_maxrate=62500 / vbv_bufsize=78125 / nal_hrd=none / ip_ratio=1.40 / aq=1:1.00
Language                    : English
Default                     : Yes
Forced                      : No

Audio #1
ID                          : 3
Format                      : AC-3
Format/Info                 : Audio Coding 3
Format settings, Endianness : Big
Codec ID                    : A_AC3
Duration                    : 1 h 43 min
Bit rate mode               : Constant
Bit rate                    : 160 kb/s
Channel(s)                  : 6 channels
Channel positions           : Front: L C R, Side: L R, LFE
Sampling rate               : 48.0 kHz
Frame rate                  : 31.250 FPS (1536 SPF)
Bit depth                   : 16 bits
Compression mode            : Lossy
Delay relative to video     : 12 s 0 ms
Stream size                 : 118 MiB (8%)
Language                    : Tamil
Service kind                : Complete Main
Default                     : Yes
Forced                      : Yes

Audio #2
ID                          : 4
Format                      : AC-3
Format/Info                 : Audio Coding 3
Format settings, Endianness : Big
Codec ID                    : A_AC3
Duration                    : 1 h 43 min
Bit rate mode               : Constant
Bit rate                    : 160 kb/s
Channel(s)                  : 6 channels
Channel positions           : Front: L C R, Side: L R, LFE
Sampling rate               : 48.0 kHz
Frame rate                  : 31.250 FPS (1536 SPF)
Bit depth                   : 16 bits
Compression mode            : Lossy
Delay relative to video     : 12 s 0 ms
Stream size                 : 118 MiB (8%)
Language                    : Hindi
Service kind                : Complete Main
Default                     : No
Forced                      : No

Audio #3
ID                          : 5
Format                      : AC-3
Format/Info                 : Audio Coding 3
Format settings, Endianness : Big
Codec ID                    : A_AC3
Duration                    : 1 h 43 min
Bit rate mode               : Constant
Bit rate                    : 160 kb/s
Channel(s)                  : 6 channels
Channel positions           : Front: L C R, Side: L R, LFE
Sampling rate               : 48.0 kHz
Frame rate                  : 31.250 FPS (1536 SPF)
Bit depth                   : 16 bits
Compression mode            : Lossy
Delay relative to video     : 12 s 0 ms
Stream size                 : 118 MiB (8%)
Language                    : Telugu
Service kind                : Complete Main
Default                     : No
Forced                      : No

Audio #4
ID                          : 6
Format                      : AC-3
Format/Info                 : Audio Coding 3
Format settings, Endianness : Big
Codec ID                    : A_AC3
Duration                    : 1 h 43 min
Bit rate mode               : Constant
Bit rate                    : 160 kb/s
Channel(s)                  : 6 channels
Channel positions           : Front: L C R, Side: L R, LFE
Sampling rate               : 48.0 kHz
Frame rate                  : 31.250 FPS (1536 SPF)
Bit depth                   : 16 bits
Compression mode            : Lossy
Stream size                 : 118 MiB (8%)
Language                    : English
Service kind                : Complete Main
Default                     : No
Forced                      : No

Text
ID                          : 2
Format                      : UTF-8
Codec ID                    : S_TEXT/UTF8
Codec ID/Info               : UTF-8 Plain Text
Duration                    : 1 h 34 min
Bit rate                    : 34 b/s
Count of elements           : 832
Stream size                 : 23.7 KiB (0%)
Language                    : English
Default                     : Yes
Forced                      : No

Menu
00:00:00.000                : en:00:00:00.000
00:16:21.397                : en:00:16:21.397
00:19:55.111                : en:00:19:55.111
00:22:29.056                : en:00:22:29.056
00:29:03.617                : en:00:29:03.617
00:36:24.307                : en:00:36:24.307
00:44:05.685                : en:00:44:05.685
00:54:14.168                : en:00:54:14.168
00:57:21.855                : en:00:57:21.855
01:02:08.183                : en:01:02:08.183
01:05:17.664                : en:01:05:17.664
01:10:17.964                : en:01:10:17.964
01:16:58.239                : en:01:16:58.239
01:22:11.593                : en:01:22:11.593
01:29:49.467                : en:01:29:49.467
01:34:34.252                : en:01:34:34.252




Insidious: The Last Key (2018) 720p BDRip x264 DD5.1 [Multi Audio][Hindi+Tam+Tel+Eng]Insidious: The Last Key (2018) 720p BDRip x264 DD5.1 [Multi Audio][Hindi+Tam+Tel+Eng]Insidious: The Last Key (2018) 720p BDRip x264 DD5.1 [Multi Audio][Hindi+Tam+Tel+Eng]Insidious: The Last Key (2018) 720p BDRip x264 DD5.1 [Multi Audio][Hindi+Tam+Tel+Eng]Insidious: The Last Key (2018) 720p BDRip x264 DD5.1 [Multi Audio][Hindi+Tam+Tel+Eng]Insidious: The Last Key (2018) 720p BDRip x264 DD5.1 [Multi Audio][Hindi+Tam+Tel+Eng]

SINGLE DIRECT FAST LINKS
http://www.heroupload.us/1e14d61996bb4a24/Insidious.The.Last.Key.2018.720p.BDRip.Original.Audios.Tamil+Telugu+Hindi+English.x264.DD5.1.ESubs-Exclusive.mkv


http://filefloater.com/1j8w/Insidious.The.Last.Key.2018.720p.BDRip.Original.Audios.Tamil+Telugu+Hindi+English.x264.DD5.1.ESubs-Exclusive.mkv



Dear visitor, you went to the site as unregistered user.
We recommend that you create or enter the site your name.

Add a comment

Name:*
E-Mail:
Bold Italic Underline Strike | Align left Center Align right | Insert smilies Insert link URLInsert protected URL Select color | Add Hidden Text Insert Quote Convert selected text from selection to Cyrillic (Russian) alphabet Insert spoiler
Enter the code: *
Include security image CAPCHA.
Refresh Code
 

|||||||

«    May 2018    »
MonTueWedThuFriSatSun
 123456
78910111213
14151617181920
21222324252627
28293031