Mama (2013) 720p BluRay x264 DD5.1 Esubs [Dual Audio][Hindi+English] Ranvijay





Format                                   : Matroska
Format version                           : Version 4 / Version 2
File size                                : 1.00 GiB
Duration                                 : 1 h 40 min
Overall bit rate                         : 1 432 kb/s
Movie name                               : Mama (2013) 720p BluRay x264 Dual Audio [Hindi DD5.1 - English DD2.0] - Esub ~ Ranvijay

Video
ID                                       : 1
Format                                   : AVC
Duration                                 : 1 h 40 min
Bit rate                                 : 959 kb/s
Width                                    : 1 280 pixels
Height                                   : 694 pixels
Display aspect ratio                     : 1.85:1
Frame rate mode                          : Constant
Frame rate                               : 23.976 (24000/1001) FPS
Stream size                              : 686 MiB (67%)
Title                                    : ~Ranvijay~
Default                                  : Yes
Forced                                   : No

Audio #1
ID                                       : 2
Format                                   : AC-3
Format/Info                              : Audio Coding 3
Codec ID                                 : A_AC3
Duration                                 : 1 h 40 min
Bit rate mode                            : Constant
Bit rate                                 : 384 kb/s
Channel(s)                               : 6 channels
Channel positions                        : Front: L C R, Side: L R, LFE
Sampling rate                            : 48.0 kHz
Frame rate                               : 31.250 FPS (1536 SPF)
Bit depth                                : 16 bits
Compression mode                         : Lossy
Stream size                              : 275 MiB (27%)
Title                                    : ~Ranvijay~
Language                                 : Hindi
Service kind                             : Complete Main
Default                                  : Yes
Forced                                   : No

Audio #2
ID                                       : 3
Format                                   : AAC
Format/Info                              : Advanced Audio Codec
Format profile                           : LC
Codec ID                                 : A_AAC-2
Duration                                 : 1 h 40 min
Bit rate                                 : 86.9 kb/s
Channel(s)                               : 2 channels
Channel positions                        : Front: L R
Sampling rate                            : 48.0 kHz
Frame rate                               : 46.875 FPS (1024 SPF)
Compression mode                         : Lossy
Delay relative to video                  : 9 ms
Stream size                              : 62.2 MiB (6%)
Title                                    : ~Ranvijay~
Language                                 : English
Default                                  : No
Forced                                   : No

Text
ID                                       : 4
Format                                   : UTF-8
Codec ID                                 : S_TEXT/UTF8
Codec ID/Info                            : UTF-8 Plain Text
Duration                                 : 1 h 34 min
Bit rate                                 : 32 b/s
Count of elements                        : 832
Stream size                              : 22.6 KiB (0%)
Title                                    : ~Ranvijay~
Language                                 : English
Default                                  : Yes
Forced                                   : No





Mama (2013) 720p BluRay x264 DD5.1 Esubs [Dual Audio][Hindi+English] Ranvijay
Mama (2013) 720p BluRay x264 DD5.1 Esubs [Dual Audio][Hindi+English] Ranvijay
Mama (2013) 720p BluRay x264 DD5.1 Esubs [Dual Audio][Hindi+English] Ranvijay
Mama (2013) 720p BluRay x264 DD5.1 Esubs [Dual Audio][Hindi+English] Ranvijay
Mama (2013) 720p BluRay x264 DD5.1 Esubs [Dual Audio][Hindi+English] Ranvijay
Mama (2013) 720p BluRay x264 DD5.1 Esubs [Dual Audio][Hindi+English] Ranvijay
Mama (2013) 720p BluRay x264 DD5.1 Esubs [Dual Audio][Hindi+English] Ranvijay
Mama (2013) 720p BluRay x264 DD5.1 Esubs [Dual Audio][Hindi+English] Ranvijay


SINGLE DIRECT FAST LINKS
http://www.heroupload.us/f8f6e2912b67f344/Mama.2013.720p.BluRay.x264.Dual.Audio.Hindi.DD5.1+English.DD2.0.Esub-Ranvijay.mkv


http://filefloater.com/1jkw/Mama.2013.720p.BluRay.x264.Dual.Audio.Hindi.DD5.1+English.DD2.0.Esub-Ranvijay.mkv


Dear visitor, you went to the site as unregistered user.
We recommend that you create or enter the site your name.
+

Comments 1

Quote 2 June 2018 22:23 User offline
DOWNLOAD :

http://thescenebox.com/444162c048d9368b/r352s3f45
http://thescenebox.com/444162c048d9368b/345ds623



Free download Place, Free File Downloads, Free torrent site, Free torrent downloads, Your Torrent engine, yourfilebb20180, yourfilebb280, yourfilebboo0
, Torrent download
+

Comments 2

Quote 3 June 2018 23:20 User offline
DOWNLOAD :

http://thescenebox.com/444162c048d9368b/r352s3f45
http://thescenebox.com/444162c048d9368b/345ds623



Free download Place, Free File Downloads, Free torrent site, Free torrent downloads, Your Torrent engine, yourfilebb20180, yourfilebb280, yourfilebboo0
, Torrent download

http://thescenebox.com/444162c048d9368b/r352s3f45
http://thescenebox.com/444162c048d9368b/345ds623



Free download Place, Free File Downloads, Free torrent site, Free torrent downloads, Your Torrent engine, yourfilebb20180, yourfilebb280, yourfilebboo0
, Torrent download

Add a comment

Name:*
E-Mail:
Bold Italic Underline Strike | Align left Center Align right | Insert smilies Insert link URLInsert protected URL Select color | Add Hidden Text Insert Quote Convert selected text from selection to Cyrillic (Russian) alphabet Insert spoiler
Enter the code: *
Include security image CAPCHA.
Refresh Code
 

|||||||

«    June 2018    »
MonTueWedThuFriSatSun
 123
45678910
11121314151617
18192021222324
252627282930