Vunnadhi Okate Zindagi (2017) Telugu - 720p - WEB-HD - AVC - AAC-TMV




General
Format                      : MPEG-4
Format profile              : Base Media
Codec ID                    : isom (isom)
File size                   : 1.93 GiB
Duration                    : 2 h 29 min
Overall bit rate mode       : Variable
Overall bit rate            : 1 848 kb/s
Encoded date                : UTC 2018-06-12 10:15:19
Tagged date                 : UTC 2018-06-12 10:15:19

Video
ID                          : 1
Format                      : AVC
Format/Info                 : Advanced Video Codec
Format profile              : High@L3.1
Format settings, CABAC      : Yes
Format settings, RefFrames  : 4 frames
Codec ID                    : avc1
Codec ID/Info               : Advanced Video Coding
Duration                    : 2 h 29 min
Bit rate                    : 1 648 kb/s
Maximum bit rate            : 7 377 kb/s
Width                       : 1 280 pixels
Height                      : 720 pixels
Display aspect ratio        : 16:9
Frame rate mode             : Constant
Frame rate                  : 25.000 FPS
Color space                 : YUV
Chroma subsampling          : 4:2:0
Bit depth                   : 8 bits
Scan type                   : Progressive
Bits/(Pixel*Frame)          : 0.072
Stream size                 : 1.72 GiB (89%)
Writing library             : x264 core 155 r2901 7d0ff22
Encoding settings           : cabac=1 / ref=3 / deblock=1:0:0 / analyse=0x3:0x113 / me=hex / subme=7 / psy=1 / psy_rd=1.00:0.00 / mixed_ref=1 / me_range=16 / chroma_me=1 / trellis=1 / 8x8dct=1 / cqm=0 / deadzone=21,11 / fast_pskip=1 / chroma_qp_offset=-2 / threads=18 / lookahead_threads=3 / sliced_threads=0 / nr=0 / decimate=1 / interlaced=0 / bluray_compat=0 / constrained_intra=0 / bframes=3 / b_pyramid=2 / b_adapt=1 / b_bias=0 / direct=1 / weightb=1 / open_gop=0 / weightp=2 / keyint=250 / keyint_min=25 / scenecut=40 / intra_refresh=0 / rc_lookahead=40 / rc=2pass / mbtree=1 / bitrate=1648 / ratetol=1.0 / qcomp=0.60 / qpmin=0 / qpmax=69 / qpstep=4 / cplxblur=20.0 / qblur=0.5 / ip_ratio=1.40 / aq=1:1.00
Encoded date                : UTC 2018-06-12 10:10:07
Tagged date                 : UTC 2018-06-12 10:15:31

Audio
ID                          : 2
Format                      : AAC
Format/Info                 : Advanced Audio Codec
Format profile              : LC
Codec ID                    : 40
Duration                    : 2 h 29 min
Duration_LastFrame          : -2 ms
Bit rate mode               : Variable
Bit rate                    : 192 kb/s
Maximum bit rate            : 206 kb/s
Channel(s)                  : 2 channels
Channel positions           : Front: L R
Sampling rate               : 44.1 kHz
Frame rate                  : 43.066 FPS (1024 SPF)
Compression mode            : Lossy
Stream size                 : 209 MiB (11%)
Language                    : Telugu
Default                     : Yes
Alternate group             : 1
Tagged date                 : UTC 2018-06-12 10:15:31


Vunnadhi Okate Zindagi (2017) Telugu - 720p - WEB-HD - AVC - AAC-TMVVunnadhi Okate Zindagi (2017) Telugu - 720p - WEB-HD - AVC - AAC-TMVVunnadhi Okate Zindagi (2017) Telugu - 720p - WEB-HD - AVC - AAC-TMVVunnadhi Okate Zindagi (2017) Telugu - 720p - WEB-HD - AVC - AAC-TMVVunnadhi Okate Zindagi (2017) Telugu - 720p - WEB-HD - AVC - AAC-TMV


SINGLE DIRECT FAST LINKS

http://www.heroupload.us/3a16137a3d8850a9/Vunnadhi.Okate.Zindagi.2017.Telugu.Proper.WEB-HD.720p.AVC.AAC-TMV.mp4



http://filefloater.com/1joT/Vunnadhi.Okate.Zindagi.2017.Telugu.Proper.WEB-HD.720p.AVC.AAC-TMV.mp4



Dear visitor, you went to the site as unregistered user.
We recommend that you create or enter the site your name.

Add a comment

Name:*
E-Mail:
Bold Italic Underline Strike | Align left Center Align right | Insert smilies Insert link URLInsert protected URL Select color | Add Hidden Text Insert Quote Convert selected text from selection to Cyrillic (Russian) alphabet Insert spoiler
Enter the code: *
Include security image CAPCHA.
Refresh Code
 

|||||||

«    June 2018    »
MonTueWedThuFriSatSun
 123
45678910
11121314151617
18192021222324
252627282930